almost famous

almost famous

Almost Famous Soundtrack-Untitled. Music From The Motion Picture (LP)

1w ago
SOURCE  

Description

Audio Source:FLAC/24 Bits/Bitrate: 3126 kbps/96000 Hz/2Channels (Stereo) Facebook:https://www.facebook.com/Mental.Disorder.Rules Tumblr:http://m-e-n-t-a-l--d-i-s-o-r-d-e-r.tumblr.com/ Google+:https://plus.google.com/u/0/b/117577755204178314405/117577755204178314405/posts Facebook:https://www.facebook.com/Mental.Disiorder Release Date:September 12, 2000/2009 (LP) Limited to 2500 Genre:Folk rock/hard rock/blues-rock/psychedelic rock/progressive rock/soft rock/southern rock/garage rock/hard rock etc... Label:Classic Records-RTH 2001,DreamWorks Records-RTH 2001 Country:US Format:2 x Vinyl/LP/Compilation/Limited Edition 2500 Copies 200 Gram Classic Records QUIEX SV-P Super Vinyl Profile Limited to 2500 Discs Side One, Track Four (A4) on the record is mislabeled as Yes: I've Seen All Good People Side Two, Track One (B1) on the record is mislabeled as 1. Every Picture Tells A Story" Side One, Track One on the Album Back Cover is mislabeled as "4." limited edition release with over 500 pieces of collectable memorabilia from the film set itself randomly distributed in the packaging. Cameron Crowe personally autograph 25 LPs that will be distributed at random. Side A 01-Simon & Garfunkel-America 0:00 02-The Who-Sparks 3:33 03-Todd Rundgren-It Wouldn't Have Made Any Difference 7:19 04-Rod Stewart-Every Picture Tells A Story 11:06 05-The Beach Boys-Feel Flows 17:03 Side B 06-Yes-I've Seen All Good People: Your Move 21:45 07-The Seeds-Mr. Farmer 25:18 08-The Allman Brothers Band-One Way Out 28:08 09-Lynard Skynard-Simple Man 33:04 10-Led Zeppelin-That's The Way 38:58 Side C 11-Elton John-Tiny Dancer 44:34 12-Nancy Wilson-Lucky Trumble 50:47 13-David Bowie-I'm Waiting For The Man 53:30 14-Cat Stevens-The Wind 59:16 15-Clarence Carter-Slip Away 1:00:56 16-Thunderclap Newman-Something In The Air 1:03:25 Side D 17-Stillwater-Fever Dog 1:07:18 18-Stillwater-Love Thing 1:10:26 19-Stillwater-Chance Upon You 1:14:36 20-Stillwater-Love Comes And Goes 1:18:22 21-Stillwater-Hour Of Need 1:22:08 22-Stillwater-You Had To Be There 1:26:42 Vinyl Ripping Equipment Technics SL-1200MK2 Turntable Shure V15VxMR Cartridge LP Gear SHVN5xMR Super Analogue Stylus Sonic Bliss Audiophile Turntable Mat Custom built, all tube phono stage Creative 0404 USB @ 24 bit / 96khz Adobe Audition 3.0 for recording software JBL LSR series studio monitors / subwoofer for playback listening iZotope RX Advanced 2.02 for any cleaning needed (all done manually) Adobe Photoshop for scans mp3tag 2.49 for file tagging Easy CD-DA Extractor Ultimate 10 v2011.3 for converting files Dynamic Range Analysis -------------------------------------------------------------------------------- Analyzed: Simon & Garfunkel / Almost Famous (Untitled) (1) The Who / Almost Famous (Untitled) (2) Todd Rundgren / Almost Famous (Untitled) (3) Rod Stewart / Almost Famous (Untitled) (4) The Beach Boys / Almost Famous (Untitled) (5) Yes / Almost Famous (Untitled) (6) The Seeds / Almost Famous (Untitled) (7) The Allman Brothers Band / Almost Famous (Untitled) (8) Lynard Skynard / Almost Famous (Untitled) (9) Led Zeppelin / Almost Famous (Untitled) (10) Elton John / Almost Famous (Untitled) (11) Nancy Wilson / Almost Famous (Untitled) (12) David Bowie / Almost Famous (Untitled) (13) Cat Stevens / Almost Famous (Untitled) (14) Clarence Carter / Almost Famous (Untitled) (15) Thunderclap Newman / Almost Famous (Untitled) (16) Stillwater / Almost Famous (Untitled) (17-22) -------------------------------------------------------------------------------- DR Peak RMS Duration Track -------------------------------------------------------------------------------- DR12 -0.05 dB -16.86 dB 3.34 01-America DR12 -0.05 dB -15.34 dB 3.46 02-Sparks DR13 -0.05 dB -15.20 dB 3.47 03-It Wouldn't Have Made Any Difference DR14 -0.05 dB -15.25 dB 5.56 04-Every Picture Tells A Story DR10 -0.05 dB -13.68 dB 4.42 05-Feel Flows DR13 -0.05 dB -17.51 dB 3.33 06-I've Seen All Good People-Your Move DR11 -0.05 dB -13.7...